#TITLE:Airen;
#SUBTITLE:;
#ARTIST:DJ Amuro;
#TITLETRANSLIT:;
#SUBTITLETRANSLIT:;
#ARTISTTRANSLIT:;
#CREDIT:;
#BANNER:Airen-BN.jpg;
#BACKGROUND:Airen-BG.jpg;
#LYRICSPATH:;
#CDTITLE:!cdtitle.png;
#MUSIC:Airen.mp3;
#OFFSET:-1.501;
#SAMPLESTART:37.610;
#SAMPLELENGTH:12.000;
#SELECTABLE:YES;
#BPMS:0.000=166.000;
#STOPS:;
#BGCHANGES:;
// cache tags:
#FIRSTBEAT:0.000;
#LASTBEAT:257.500;
#SONGFILENAME:Songs/nhac/Airen/Airen.sm;
#HASMUSIC:1;
#HASBANNER:1;
#MUSICLENGTH:95.085;
// end cache tags

//---------------dance-single - ----------------
#NOTES:
     dance-single:
     :
     Challenge:
     11:
     1.000,1.000,1.000,1.000,0.852,624.000,224.000,187.000,0.000,17.000:
2202
0000
0000
0000
0000
0000
0000
0000
3303
0000
0000
0000
0000
0000
0002
0203
,
2300
0000
0000
0000
0000
0000
0000
0000
3000
0000
0000
0000
0000
0000
2000
3020
,
0032
0000
0000
0000
0003
0000
0002
0203
,
0320
0000
0000
0000
0030
2000
3002
0203
,
2300
0000
0000
0000
0000
0000
0000
0000
3000
0000
0000
0000
0000
0000
0002
0203
,
2300
0000
0000
0000
0000
0000
0000
0000
3000
0000
0000
0000
0000
0000
2000
3020
,
0032
0000
0000
0000
0003
0000
0002
0203
,
0320
0000
0030
0000
,
2101
0000
3010
0000
0101
0000
1000
0000
0011
0000
0100
0000
1001
0000
0002
0203
,
2301
0000
3010
0000
0101
0000
0010
0000
1001
0000
0100
0000
1010
0000
2000
3020
,
1032
0000
0103
0000
1010
0000
0001
0000
0110
0000
1000
0000
0102
0003
0210
0300
,
1020
0000
0130
0000
1001
0000
0010
0000
0101
0000
2001
3000
0102
0003
0210
0300
,
2010
0000
3001
0000
0110
0000
1000
0000
0011
0000
0100
0000
1001
0000
0002
0203
,
2301
0000
3010
0000
0101
0000
1000
0000
0011
0000
0100
0000
1001
0000
2000
3020
,
1032
0000
0103
0000
1001
0000
0010
0000
0101
0000
1000
0000
0102
0003
0210
0300
,
1020
0000
0000
0130
0000
0000
1000
0000
0100
0000
0001
0000
0010
0000
0000
0100
0000
0000
1000
0000
0000
0001
0000
0000
2010
0000
0000
3001
0000
0000
0100
0000
0000
1000
0000
0000
0021
0000
0000
0130
0000
0000
0001
0000
0000
1000
0000
0000
,
2102
3003
1000
0001
1010
0000
1000
0001
0110
1000
0010
0000
0101
1000
0010
0000
,
1001
0000
0001
0100
1001
0000
1000
0001
0110
1000
0001
0000
0011
1000
0202
0303
,
2002
3003
0100
0010
1001
0000
1000
0001
0110
1000
0010
0000
0101
1000
0010
0000
,
1001
0000
1000
0100
1001
0000
0001
1000
0210
0301
1000
0000
0102
0013
1000
0000
,
2002
3003
1000
0010
1001
0000
0001
0100
1010
0001
0100
0000
1010
0001
0100
0000
,
1001
0000
1000
0010
0101
0000
0001
0100
1010
0001
1000
0000
1010
0100
0001
0000
,
1001
0000
1000
0010
0101
0000
0001
0100
1010
0001
0100
0000
1010
0001
0100
0000
,
1001
0000
1000
0010
0101
0000
0001
0100
1010
0001
1000
0000
1010
0100
0022
0033
,
2002
3003
1000
0100
1001
0000
0001
1000
0110
0001
0010
0000
0101
1000
0010
0000
,
1001
0000
1000
0100
1001
0000
0001
1000
0110
0001
1000
0000
0101
0010
1000
0000
,
1001
0000
1000
0100
1001
0000
0001
1000
0110
0001
0010
0000
0101
1000
0010
0000
,
1001
0000
1000
0100
1001
0000
0001
1000
0210
0301
1000
0000
0102
0013
1000
0000
,
2002
3003
1000
0010
0101
0000
0001
0100
1010
0001
0100
0000
1010
0001
2200
3300
,
2002
3003
1000
0010
0101
0000
0001
0100
1010
0001
1000
0000
1010
0100
2002
3003
,
2002
3103
0010
1000
0100
0001
0010
0001
0100
0010
1000
0001
0100
1000
0012
0103
,
2001
0000
3100
0000
0001
0000
1000
0000
0001
0000
0100
0000
0010
0000
0001
0000
1002
0100
0013
0100
1000
0010
0100
0001
1000
0001
0010
0001
0100
0010
1000
0100
,
2022
3033
0100
0000
0010
0000
0100
0000
1001
0000
0010
0000
1000
0000
0101
0000
,
0010
0000
0100
0000
1001
0000
0010
0000
1000
0000
0101
0000
0010
0000
0000
0100
,
1002
0103
0010
0100
1001
0010
1000
0101
,
0010
0000
0100
0000
1001
0000
0010
0000
1000
0000
0101
0000
0010
0000
0000
0100
,
1002
0003
0010
0000
0202
0303
1000
0000
0110
0000
2002
3003
0110
0000
1000
0000
,
0022
0033
0100
0000
1001
0000
0220
0330
1010
0000
0001
0000
0220
0330
0000
0100
,
1001
0000
0100
0000
2020
3030
0001
0000
0110
0000
2002
3003
1010
0000
0100
0000
,
0022
0033
0100
0000
1001
0000
2020
3030
1100
0000
0001
0000
0220
0330
2010
3100
,
2002
3003
0010
0000
0202
0303
1000
0000
0110
0000
2002
3003
1010
0000
0001
0000
,
0220
0330
1000
0000
0101
0000
2020
3030
1001
0000
0010
0000
0202
0303
2001
3100
,
2010
3001
0100
1000
0120
1030
0100
0010
1000
0100
1002
0103
0010
1000
0102
0013
,
1002
0000
0000
0103
0000
0000
1000
0000
0000
0010
0000
0000
0102
0000
0000
1003
0000
0000
0100
0000
0000
0010
0000
0000
1002
0000
0100
0003
1000
0000
0010
0000
0001
0000
1000
0000
0102
0000
1000
0003
0001
0000
0010
0000
0001
0000
0100
0000
,
0220
0330
1000
0000
0101
0000
0010
0000
1001
0000
0100
0000
1010
0000
0002
0203
,
2301
0000
3010
0000
0101
0000
1000
0000
0011
0000
0100
0000
1001
0000
2001
3020
,
1032
0000
0103
0000
1001
0000
0010
0000
1100
0000
0010
0000
0102
0003
0210
0300
,
1020
0000
1030
0000
0101
0000
0010
0000
1002
0003
2100
3000
0202
0303
0210
0300
,
2020
0030
3001
0000
0110
0000
1000
0000
0011
0000
0100
0000
1001
0000
0002
0203
,
2301
0000
3010
0000
0101
0000
1000
0000
0011
0000
0100
0000
1001
0000
2000
3020
,
1032
0000
0103
0000
1001
0000
0010
0000
1100
0000
0001
0000
0012
0003
0210
0300
,
1020
0000
0130
0000
1001
0000
0010
0000
0101
0000
1000
0000
0011
0000
0202
0303
,
2002
3003
0010
0000
0101
0000
1000
0000
0011
0000
0100
0000
1001
0000
0002
0203
,
2301
0000
3010
0000
0101
0000
1000
0000
0011
0000
0100
0000
1001
0000
2000
3020
,
1032
0000
0103
0000
1001
0000
0010
0000
0101
0000
1000
0000
0012
0003
0201
0300
,
1020
0000
0130
0000
1001
0000
0010
0000
0202
0303
2001
3000
0202
0303
0210
0300
,
2002
0003
3010
0000
0101
0000
1000
0000
0011
0000
0100
0000
1001
0000
0012
0203
,
2301
3000
0010
0000
0101
0000
1000
0000
0110
0000
0001
0000
1010
0000
2100
3010
,
1002
0103
0010
1000
0100
0001
0010
0100
1000
0010
0100
0001
1000
0010
0102
0013
,
2001
3010
0100
1000
0102
0013
1000
0001
0120
1030
0010
0100
2001
3010
0001
1000
,
2202
3303
1000
0100
0000
0000
1000
0001
0100
1000
0010
0000
0001
0010
1000
0000
,
1000
0000
1000
0100
0000
0000
1000
0001
0100
1000
0001
0000
0001
1000
0010
0000
,
1000
0000
1000
0100
0000
0000
1000
0001
0100
1000
0010
0000
0001
0010
1000
0000
,
1000
0000
1000
0100
0000
0000
0001
1000
0100
0001
1000
0000
0001
1000
0010
0000
,
0000
0010
0000
0010
0000
0000
0000
0000
;
